#TITLE:Omnivision;
#SUBTITLE:;
#ARTIST:Platonist;
#TITLETRANSLIT:;
#SUBTITLETRANSLIT:;
#ARTISTTRANSLIT:;
#CREDIT:;
#BANNER:;
#BACKGROUND:;
#LYRICSPATH:;
#CDTITLE:;
#MUSIC:097 - Platonist - Omnivision.mp3;
#OFFSET:-0.920;
#SAMPLESTART:100.000;
#SAMPLELENGTH:12.000;
#SELECTABLE:YES;
#BPMS:0.000=130.140;
#STOPS:;
#BGCHANGES:0.000=Omni=1.000=0=0=1,
99999=-nosongbg-=1.000=0=0=0 // don't automatically add -songbackground-
;
// cache tags:
#FIRSTBEAT:0.000;
#LASTBEAT:524.000;
#SONGFILENAME:Songs/My Creations/097 - Platonist - Omnivision/097 - Platonist - Omnivision.sm;
#HASMUSIC:1;
#HASBANNER:0;
#MUSICLENGTH:243.826;
// end cache tags

//---------------dance-single - ----------------
#NOTES:
     dance-single:
     :
     Medium:
     1:
     0.357,0.475,0.443,0.049,0.000,490.000,108.000,12.000,0.000,0.000:
1000
1000
1001
1001
,
1000
1000
0011
0011
,
0001
0001
0110
0110
,
0001
0001
0100
0000
,
0100
1001
0100
0001
,
1010
0010
1000
0010
,
0010
0001
0101
0001
,
1000
0100
0100
0100
,
0100
0001
0001
0001
,
1000
0110
1001
0010
,
0010
0010
1100
0101
,
2020
0000
0000
3030
,
1000
1000
0001
0001
,
1000
1000
0001
0001
,
0101
0101
1000
1000
,
0100
0000
0100
0000
1000
0001
1000
0001
,
1000
0000
1000
0000
0001
0010
0001
0010
,
1000
0000
1000
0000
0001
0010
0001
0010
,
0100
0100
0010
0010
,
0000
1000
0001
0001
,
1000
0010
0100
0010
,
0100
0001
1100
1100
,
0100
0100
0110
0010
,
1010
0101
1010
0001
,
0110
0001
1000
0001
,
1000
0001
1000
0100
,
0100
0100
0001
0001
,
1001
1001
1000
0001
,
0110
0001
1000
0001
,
1000
0100
1100
1100
,
0100
0100
0010
0010
,
1001
0001
1000
0001
,
0010
0001
1000
0011
,
1000
0001
1000
0100
,
0100
0100
0001
0001
,
1001
0001
1000
0001
,
0110
0110
0001
0000
1000
0000
0022
0000
,
0000
0000
0000
0033
,
2200
0000
0000
3300
,
0100
0001
1100
0010
,
1000
0100
0100
0100
,
0101
0101
0101
0101
,
1010
1010
1001
0010
,
0220
0000
0000
0000
,
0000
0000
0000
0330
,
1001
1001
1000
0101
,
1000
1000
0100
0100
,
0010
0010
0001
0001
,
0001
0001
0110
0001
,
1000
0000
0001
0000
0000
0100
1000
0000
,
0000
0000
0001
0000
0000
0010
0100
0000
,
0010
0010
0101
0001
,
0010
0000
0001
0001
0110
0110
0001
0001
,
1000
1000
0001
0001
0100
0000
0100
0000
,
1000
1000
0100
0100
,
0100
0000
1001
0001
,
1000
0001
0110
0001
,
1000
0001
0010
0010
,
0100
1000
0001
0010
,
1000
0100
0000
0000
,
1000
0001
0000
0000
,
1000
0001
1000
0001
,
1000
1000
0100
0100
,
0010
0010
1001
1001
,
1001
1001
0110
0110
,
1001
0110
1001
0110
,
1001
1001
0100
0100
,
0100
0100
1001
1001
,
1000
1000
0110
0001
,
0001
0001
1000
0010
,
0001
0000
1000
0100
0100
0100
0000
0000
,
0010
1000
1001
0001
,
0001
0001
0010
0001
,
0001
0000
0001
0000
0010
0100
0010
0010
,
0010
0001
0010
0001
0010
0100
0010
1000
,
0010
0001
0010
1000
0002
0000
0000
0000
,
0000
0003
0200
0000
,
0000
0300
0001
0000
,
0001
1000
0000
1000
,
0001
0000
0100
0000
,
0010
0000
0001
0000
,
0100
0000
1000
0000
,
0001
0000
0010
0000
,
0100
0100
1001
1001
,
0110
0110
0110
1001
,
1001
1001
1001
0100
,
0001
0100
1000
0100
,
0100
0000
0100
0010
0100
0000
0100
0000
,
1000
0100
0001
0010
,
0001
1000
0100
0001
,
1000
0001
0001
0100
,
1001
0110
1001
0110
,
0001
0010
0200
0000
,
0000
0000
0300
0002
,
0000
0010
1000
0010
,
0000
0003
0100
0100
,
0001
0010
1000
0100
,
0100
0011
0001
0010
,
1000
0000
0001
0000
0000
0100
0001
0000
,
0100
0000
0001
0000
1000
0010
0010
0000
,
1000
0010
0001
0001
,
0001
0001
1001
0001
,
1001
0001
0101
0001
,
0011
0001
0101
0001
,
1001
0001
0101
0001
,
0011
0001
1100
1000
,
1000
1000
1100
1000
,
1001
1000
1010
1000
,
1001
1000
1100
1000
,
1001
1001
1001
1000
,
0001
0000
0000
1000
0100
1000
0100
0001
,
0010
0001
0010
0000
1000
0000
1000
0000
,
0110
0000
0000
1001
0010
0000
0010
0010
,
0000
0010
0000
0000
0001
1000
0001
1000
,
0001
0000
1000
1000
0100
0000
0100
0000
,
0001
0001
0001
0001
,
0110
0110
1001
1000
,
0000
1000
0010
0100
,
0001
0100
0001
1000
,
0001
1000
0001
0100
,
0001
0100
0001
1000
,
0100
0010
0001
0100
,
0001
0100
0001
1000
,
0010
1000
0001
0100
,
0001
1000
0010
1000
,
0100
1010
1010
1010
,
0000
0001
0000
0000
0000
0001
0000
0000
,
0000
0001
0000
0000
0000
0001
0000
0000
,
0000
0001
0000
0000
0000
0001
0000
0000
;

//---------------dance-single - Copied from----------------
#NOTES:
     dance-single:
     Copied from:
     Hard:
     1:
     0.412,0.502,0.427,0.090,0.000,578.000,104.000,22.000,12.000,0.000:
1000
0001
1000
0001
1001
0000
1001
0000
,
1000
0100
1000
0100
0011
0000
0011
0000
,
0001
1000
0001
1000
0110
0000
0110
0000
,
0001
0010
0001
0010
0100
0010
0000
1000
,
0100
0001
0100
0001
,
1000
0010
1000
0010
,
0100
0001
1100
0001
,
1000
0100
0010
0100
,
0100
0001
0100
0001
,
1000
0110
1001
0010
,
0100
0010
1100
0001
,
1000
0100
2020
3030
,
1000
0100
1000
0100
0001
0010
0001
0010
,
1000
0100
1000
0100
0001
0010
0001
0010
,
0100
0010
0100
0010
1000
0001
1000
0001
,
0100
0010
0100
0010
1000
0001
1000
0001
,
1000
0100
1000
0100
0001
0010
0001
0010
,
1000
0100
1000
0100
0001
0010
0001
0010
,
0100
0100
0100
0000
0010
0010
0010
0000
,
0000
1000
1000
1000
0001
0001
0001
0000
,
1000
0010
0100
0001
,
1000
0100
0001
0010
1100
0110
1100
0000
,
0100
0000
0100
0001
0010
0001
0010
0000
,
1001
0001
1000
0001
,
0110
0001
1000
0001
,
1000
000M
1000
0M00
,
0100
0M00
0001
000M
,
1001
0001
1000
0001
,
0110
0001
1000
0001
,
1000
0100
0001
0010
1100
0110
1100
0000
,
0100
0000
0100
0001
0010
0001
0010
0000
,
1001
0011
1000
0001
,
0110
0001
1000
0011
,
1000
000M
M000
0100
,
0100
0M00
000M
0001
,
1001
1001
0001
0000
1000
0000
0001
0000
,
0110
0110
0001
0000
1000
0000
0011
0000
,
0200
0002
0300
0003
,
2000
0020
3000
0030
,
0100
0001
1100
0010
,
1000
0100
0010
0100
,
0101
0100
0101
0001
0101
0100
0101
0000
,
1010
0010
1010
1000
1001
0001
0010
0000
,
2200
0000
0000
3300
,
0220
0000
0000
0330
,
1001
1001
1000
0001
,
1100
1100
0100
0100
,
0010
0010
1001
0001
,
1000
0001
0110
0001
,
1000
0000
0001
0000
1000
0100
1000
0000
,
0001
0000
0001
0000
0100
0010
0100
0000
,
0010
0000
0010
0000
1001
0000
0001
0001
,
1000
1000
0001
0001
0110
0110
0001
0001
,
1000
1000
0001
0001
1100
0000
0101
0000
,
1000
1000
0100
0001
,
0100
0001
1001
0001
,
1000
0001
0110
0001
,
1000
0001
000M
0010
,
0100
M000
0001
00M0
,
M000
0100
2002
3003
,
1000
0001
0220
0330
,
1000
0000
0001
0000
1000
0100
0001
0010
,
1000
0100
1000
0100
0100
0010
0100
0001
,
0010
0001
0010
1001
1001
1001
1000
0000
,
0001
0000
1000
0000
0110
0110
0110
0000
,
0001
0100
1000
0000
,
1000
0001
0001
0000
0100
0000
0000
0000
,
0100
0001
0100
0000
1001
0000
1000
0000
,
0001
1000
0110
0001
,
0010
0000
0001
0000
1000
0100
0000
0010
,
0001
0000
1000
0100
0100
0100
0000
0001
,
0010
0000
1000
0001
1001
0000
0001
0000
,
0001
0001
0110
0100
,
0100
0000
0100
0000
1000
0100
1000
0010
,
0100
0001
0100
0001
0010
0100
0010
1000
,
0010
0001
0010
1000
2002
0000
0000
0000
,
0000
3003
0220
0000
,
0000
0330
0001
0010
,
0001
1000
0100
1000
,
0001
0010
0100
1000
,
0010
0100
0001
0010
,
0100
0001
1000
0100
,
0001
0010
0010
0001
,
0100
0100
0001
1000
,
0100
0010
0100
0001
,
1000
0001
1001
0100
,
0011
0100
1010
0100
,
0011
0010
0110
0100
,
1001
0100
0011
0010
,
0101
1000
0110
0001
,
1010
0001
0101
0100
,
1001
0010
1010
0100
,
0001
0010
2000
0200
,
0000
3000
0300
0001
,
0001
0010
1000
0010
,
0001
0000
0001
0000
0100
0010
0100
0000
,
0001
0000
0010
0000
1000
0001
0100
0000
,
0100
0000
0011
0000
0001
0100
0010
0000
,
1000
0000
0001
0000
0001
0100
0001
0000
,
0100
0000
0001
0000
1000
0010
0010
0000
,
1000
0000
0010
0000
0001
0001
0001
0000
,
0001
1000
0001
1000
1001
0000
0000
0000
,
1000
0000
0100
0000
,
0010
0000
0100
0000
,
1000
0000
0100
0000
,
0010
0000
0100
0000
,
1000
0000
0100
0000
,
0001
0000
0010
0000
,
0001
0000
0100
0000
,
0001
0000
0000
0000
0000
1001
1000
1001
,
0001
1001
0000
1000
0100
1000
0100
0001
,
0010
0001
0010
0001
1000
0001
1000
0110
,
0000
0110
0000
1001
0010
1000
0010
0110
,
0000
0110
0000
1000
0001
1000
0001
1000
,
0001
1000
1000
1000
0100
1000
0100
0000
,
0011
0000
0011
0000
0001
1000
0001
1000
,
0110
0000
0110
0000
1001
0010
1000
0010
,
0000
0100
0000
0100
0010
0000
0100
0000
,
0001
0100
0101
1000
,
0001
1000
0011
0100
,
0001
1100
0001
1000
,
0100
0010
0101
0100
,
0001
0100
1001
1000
,
0010
1000
0101
0100
,
0001
1100
0011
1000
,
0100
0000
2020
0000
3030
0000
0000
0001
,
0000
0000
0100
0001
0000
0000
0100
0001
,
0000
0000
0100
0001
0000
0000
0100
0001
,
0000
0000
0100
0001
0000
0000
0100
0001
;

//---------------dance-single - Copied from Copied f----------------
#NOTES:
     dance-single:
     Copied from Copied f:
     Challenge:
     1:
     0.602,0.661,0.861,0.086,0.000,797.000,210.000,21.000,50.000,0.000:
1100
0000
1000
1001
1001
0010
1001
0000
,
1000
0100
1000
0000
0011
1000
0011
0100
,
0001
1000
0001
1000
0110
0010
0110
0000
,
0001
0010
0001
0011
0100
0010
0000
1000
,
0100
0000
0101
1000
0100
0000
1001
0000
,
1000
0000
0011
1000
1010
0000
0010
0001
,
0110
0000
0001
0001
1100
0100
0001
0001
,
1000
0100
0100
0100
0011
0000
0100
0000
,
1100
M001
010M
00M1
,
100M
0000
0110
0100
1001
0001
0010
0100
,
0100
0001
0010
0100
1100
1000
0001
0001
,
1000
0000
0101
0000
1010
1010
1010
0000
,
1001
0010
1000
0100
0001
0100
0001
0010
,
1000
0000
1010
0010
M001
0010
M001
0010
,
0100
0001
0100
0010
1001
0010
1000
0001
,
0100
1010
0100
0011
1000
0001
1000
0001
,
0100
0101
1000
0101
0001
1010
0001
0010
,
0100
0101
1000
0100
0100
0010
0001
0010
,
0101
0101
0101
0000
0110
0110
0110
0000
,
0000
1100
1000
1100
0011
0001
0011
0000
,
1001
M010
01M0
0M01
,
100M
0100
0001
0011
1100
0110
1100
0000
,
0011
0000
0100
1001
0010
1001
0010
0000
,
1001
0010
0001
0100
1000
0010
0001
0100
,
0110
0000
0001
0010
1000
0100
0001
0010
,
1000
0100
000M
0010
1000
0001
0M00
0000
,
0101
0001
0M01
0000
0101
0100
010M
0000
,
0011
0101
1010
0101
,
0110
0011
1000
0001
,
1001
0100
0001
0010
1001
0101
1010
0000
,
0001
0000
0100
0101
0010
0101
0010
0000
,
0101
0000
0011
0001
1000
0100
0001
1000
,
0110
M001
100M
M011
,
100M
0000
000M
0001
M000
0100
0100
0010
,
0100
0010
0M00
0100
000M
1000
0001
0100
,
1001
1001
0001
0001
1000
0010
0001
0100
,
0110
0110
1001
0000
1000
0000
0011
0000
,
0100
1000
0100
0010
0001
0010
0001
0100
,
1000
0100
0010
0001
0001
0010
1000
0000
,
0100
0010
0001
0010
1100
0001
0010
0000
,
1001
0101
1010
0101
,
0101
1000
0101
0010
0101
1000
0101
0000
,
1010
0100
1010
0001
1001
0100
0010
0000
,
2200
3300
2200
3300
,
0220
0330
0220
0330
,
1MM1
0MM0
1MM1
0000
1MM0
0000
0001
0010
,
1100
0010
1100
0010
0100
0010
0100
0010
,
0010
0100
0010
0100
1001
0100
0001
0100
,
1000
0100
0001
0100
0110
0000
0001
0001
,
1000
1000
0001
0001
1000
0100
1000
0000
,
0011
0000
0101
0000
0110
0010
0110
0000
,
0011
0000
1010
0000
1MM1
0000
0MM1
0010
,
1000
0100
0001
0010
0110
1010
0010
0001
,
0100
1000
0010
0001
1000
0000
0101
0000
,
1000
0010
1000
0010
0100
0100
0001
0100
,
0100
00M1
1001
00M1
,
1000
0010
0001
1000
0110
0001
0001
0100
,
1000
0100
0001
0010
000M
0100
0010
0010
,
0100
0001
M000
0010
0001
0100
00M0
0001
,
M000
0001
0100
0010
1001
0000
1001
0000
,
1100
0000
0001
0000
0110
0110
0110
0110
,
1000
0000
0001
0001
0100
0100
0001
0010
,
0001
0100
1000
0101
0100
1010
0100
1001
,
0010
1001
0010
1001
1001
1001
1000
0000
,
0011
0000
1010
0000
0110
0110
0110
0000
,
0101
0110
1100
0010
,
1100
0101
0001
0100
0100
0001
0000
0010
,
0100
1001
0100
0100
1001
0010
1000
0100
,
0001
0010
1000
0001
0110
0000
0101
0000
,
2020
0000
3030
0000
1001
0101
0000
0010
,
0001
0000
1000
0101
0100
0101
0000
0001
,
0010
0100
1000
0001
1001
0100
0001
1000
,
0001
1100
0001
0110
0110
0001
0100
0001
,
0100
0001
0100
0001
2000
0100
3000
0010
,
0200
0001
0300
0001
0020
0100
0000
1000
,
0000
0001
0030
1000
1001
1001
1001
1001
,
1001
1001
1001
0000
0110
0110
0110
0110
,
0110
0110
0110
0000
0001
0010
0010
0100
,
0001
0001
1000
0010
0100
0001
1000
0010
,
0001
0100
0010
0001
0100
0100
1000
0010
,
0010
0001
0100
1000
0001
0100
0010
0001
,
0100
0010
0001
0100
1000
0010
0100
0010
,
0001
0100
0010
1000
0010
0100
0001
0001
,
0100
0010
0100
1000
0001
0010
1000
0001
,
0100
0100
0010
0010
0100
1000
0001
1000
,
1000
0001
0001
0010
1001
0100
0100
1000
,
0011
010M
1010
010M
,
0011
M010
0110
1M00
,
1001
010M
0011
0M10
,
0101
0100
1000
0001
0110
0010
0001
1000
,
1010
0010
0001
0100
0101
1000
0100
0010
,
1001
0001
0010
0001
1010
0010
0100
0100
,
0001
1000
0010
1000
2000
0100
0200
0000
,
0000
0000
3000
0000
0310
0000
0001
0100
,
0001
0010
0010
0100
1000
0010
0010
0100
,
0001
0010
0001
0100
0100
0010
0100
0000
,
1001
0000
0110
0000
1010
0001
0101
0000
,
0101
0000
0011
0000
1001
0100
0010
0000
,
1100
0000
0000
0000
0000
1100
0101
0000
,
0100
1000
0001
0010
1000
0010
0010
0100
,
1000
0010
0010
1000
0001
0001
0001
0000
,
0001
1100
0001
1100
1001
0000
0010
0000
,
1000
0010
0100
0100
,
0010
0010
0101
0001
,
1000
0001
0100
0010
,
0010
0100
0100
0001
,
1000
0010
0100
1000
,
0001
0000
0100
0100
0010
0000
0100
0100
,
0001
0000
0001
0010
0100
0000
1000
0100
,
0001
0000
0001
0010
0000
1010
1000
1001
,
0001
1010
0000
0100
0100
1000
0100
0010
,
0010
0001
0010
0100
1000
0001
1000
0100
,
0000
0010
0000
1001
0010
1001
0010
0110
,
1000
0110
0000
0100
0001
1000
0001
0100
,
0001
1000
1000
0011
0100
1000
0100
0000
,
0011
0011
0011
0000
0001
1000
0001
1000
,
M11M
0000
M11M
0000
1001
0020
1000
0030
,
0000
0200
0000
0300
0010
0000
0200
0000
,
0001
0000
0001
1000
,
0001
1300
0011
0200
,
0001
1000
0001
1000
,
0000
0010
0001
0300
,
0001
1000
0100
0010
1001
0100
1000
0001
,
0010
0100
1000
0010
0101
1000
0100
0010
,
0001
0001
1100
0100
0011
0001
1000
0010
,
0100
0001
2020
0000
0000
0000
3030
0001
,
0000
0000
0100
0001
0010
0000
0100
0001
,
0010
0000
0100
0001
0010
0000
0100
0001
,
0010
0000
0100
0001
0010
0000
0100
0001
,
1010
0000
0000
0000
;

//---------------dance-single - Copied from----------------
#NOTES:
     dance-single:
     Copied from:
     Easy:
     1:
     0.250,0.291,0.082,0.037,0.000,397.000,20.000,9.000,0.000,0.000:  // measure 1
1000
0000
0001
0000
,  // measure 2
1000
0000
0011
0000
,  // measure 3
0001
0000
0110
0000
,  // measure 4
0001
0000
0100
0000
,  // measure 5
0100
0001
0100
0001
,  // measure 6
1010
0010
1000
0010
,  // measure 7
0010
0001
0100
0001
,  // measure 8
1000
0100
0000
0100
,  // measure 9
0000
0001
0000
0001
,  // measure 10
1000
0000
1000
0010
,  // measure 11
0000
0010
0000
0101
,  // measure 12
2020
0000
0000
0000
,  // measure 13
0000
3030
0002
0003
,  // measure 14
2000
3000
0002
0000
,  // measure 15
0000
0003
1000
1000
,  // measure 16
0100
0100
1000
1000
,  // measure 17
1000
1000
0001
0001
,  // measure 18
1000
1000
0001
0001
,  // measure 19
0100
0100
0010
0010
,  // measure 20
0000
1000
0001
0000
,  // measure 21
1000
0010
0000
0010
,  // measure 22
0100
0000
0100
0100
,  // measure 23
0100
0100
0100
0100
,  // measure 24
0100
0100
0010
0001
,  // measure 25
0010
0001
0010
0001
,  // measure 26
0010
0001
0010
0100
,  // measure 27
0100
0100
0001
0001
,  // measure 28
0001
0001
1000
0001
,  // measure 29
0001
0001
1000
0001
,  // measure 30
1000
0100
0100
0100
,  // measure 31
0100
0100
0010
0010
,  // measure 32
0010
0010
1000
0001
,  // measure 33
1000
0001
1000
0001
,  // measure 34
1000
0001
1000
0001
,  // measure 35
0001
0001
0001
0001
,  // measure 36
0001
0001
1000
1000
,  // measure 37
0010
0001
1000
0002
,  // measure 38
0000
0000
0000
0000
,  // measure 39
0000
0000
0000
0003
,  // measure 40
0100
0001
0100
0001
,  // measure 41
0100
0100
0100
0100
,  // measure 42
0100
0100
0100
0100
,  // measure 43
0010
0010
0010
0010
,  // measure 44
0020
0000
0000
0000
,  // measure 45
0000
0000
0000
0030
,  // measure 46
1001
0000
1000
0000
,  // measure 47
1000
0000
0100
0000
,  // measure 48
0010
0000
0001
0000
,  // measure 49
0001
0000
0110
0001
,  // measure 50
1000
0001
1000
0001
,  // measure 51
1000
0001
0100
0100
,  // measure 52
0010
0010
0001
0001
,  // measure 53
0010
0010
0100
0100
,  // measure 54
1000
1000
0100
0100
,  // measure 55
1000
1000
0100
0100
,  // measure 56
1001
0000
0001
0001
,  // measure 57
1000
1000
0110
0001
,  // measure 58
0001
0001
0010
0010
,  // measure 59
1000
1000
0001
0001
,  // measure 60
1000
1000
0000
0000
,  // measure 61
1000
0000
0000
0000
,  // measure 62
1000
0000
0000
0000
,  // measure 63
1000
1000
0100
0100
,  // measure 64
0010
0010
0001
0001
,  // measure 65
0001
0001
0010
0010
,  // measure 66
0010
0010
1001
0010
,  // measure 67
1001
0100
0100
0100
,  // measure 68
0100
0100
1000
1000
,  // measure 69
1000
1000
0010
0001
,  // measure 70
0001
0001
1000
0000
,  // measure 71
0001
0000
1000
0000
,  // measure 72
0010
0000
0001
0001
,  // measure 73
0001
0001
0001
0001
,  // measure 74
0001
0001
0010
0010
,  // measure 75
0010
0010
0010
0010
,  // measure 76
0010
0010
0001
0001
,  // measure 77
0000
0000
0100
0100
,  // measure 78
0000
0000
0001
0001
,  // measure 79
0000
1000
1000
0000
,  // measure 80
0001
0001
0000
0000
,  // measure 81
0010
0000
0100
0000
,  // measure 82
0010
0000
0100
0000
,  // measure 83
0010
0000
0100
0000
,  // measure 84
0010
0010
0001
0001
,  // measure 85
0010
0010
0010
0000
,  // measure 86
1001
0000
1001
0000
,  // measure 87
0001
0100
0100
0100
,  // measure 88
0100
0100
0100
0100
,  // measure 89
0100
0100
0002
0000
,  // measure 90
0000
0000
0000
0003
,  // measure 91
0002
0000
0000
0003
,  // measure 92
0000
0110
0000
0110
,  // measure 93
0000
0010
0100
0000
,  // measure 94
0100
0000
0100
0001
,  // measure 95
0000
0011
1000
0011
,  // measure 96
0000
0001
0100
0100
,  // measure 97
0100
1000
1000
0100
,  // measure 98
0100
0001
0001
0010
,  // measure 99
1001
0000
0000
0001
,  // measure 100
0100
0001
1000
0010
,  // measure 101
1000
0010
0001
0001
,  // measure 102
0001
0001
0001
0001
,  // measure 103
0001
0001
0001
0001
,  // measure 104
0001
0001
0001
0001
,  // measure 105
0001
0001
0001
0001
,  // measure 106
0010
0001
0100
1000
,  // measure 107
1000
1000
0100
1000
,  // measure 108
0001
1000
0010
1000
,  // measure 109
0001
1000
0100
1000
,  // measure 110
1000
1000
1000
1000
,  // measure 111
0001
0000
0100
0100
,  // measure 112
0010
0010
1000
1000
,  // measure 113
0010
0000
0010
0010
,  // measure 114
0000
0000
0001
0001
,  // measure 115
0001
1000
1000
1000
,  // measure 116
0001
0001
0001
0001
,  // measure 117
0100
0100
0001
1000
,  // measure 118
0000
1000
0000
0100
,  // measure 119
0001
0100
0001
0000
,  // measure 120
0001
0000
0001
0100
,  // measure 121
0001
0100
0001
1000
,  // measure 122
0000
0010
0000
0100
,  // measure 123
0001
0000
0001
1000
,  // measure 124
0010
0000
0001
0100
,  // measure 125
0001
0000
0010
1000
,  // measure 126
0100
0000
1010
1010
,  // measure 127
0001
0000
0000
0000
,  // measure 128
0001
0000
0000
0000
,  // measure 129
0001
0000
0000
0000
,  // measure 130
0001
0000
0000
0000
;
